ZARD -《さわやかな君の気持ち》单曲[APE] ———CUE文件

VC上没有,google找了找似乎也没有,所以自己写一个“

至今不知道怎么读取CD-TEXT…………

PERFORMER "ZARD"
TITLE "さわやかな君の気持ち"
FILE "ZARD-さわやかな君の気持ち.wav" WAVE
  TRACK 01 AUDIO
    TITLE "さわやかな君の気持ち"
    PERFORMER "ZARD"
    INDEX 01 00:00:00
  TRACK 02 AUDIO
    TITLE "抱きしめていて"
    PERFORMER "ZARD"
    INDEX 00 04:59:29
    INDEX 01 05:02:28
  TRACK 03 AUDIO
    TITLE "Seven Rainbow"
    PERFORMER "ZARD"
    INDEX 00 09:32:08
    INDEX 01 09:35:63
  TRACK 04 AUDIO
    TITLE "さわやかな君の気持ち(Instrumental)"
    PERFORMER "ZARD"
    INDEX 00 14:18:58
    INDEX 01 14:21:01

 

以下内容来自VC.

 

中文名称:さわやかな君の気持ち
资源类型:APE
版本:单曲
发行时间:2002年05月22日
专辑歌手ZARD
地区:日本
语言:日语
简介
sl34.jpg
专辑介绍:
ZARD的第34首单曲,也是Zard第二章的开场曲,当年被用于上户彩主演的花王爽肤水广告曲。清新爽朗真的和广告的主题很配呢。非常适合夏天的一支曲子。除了单曲《さわやかな君の気持ち》,唱片还收录了《抱きしめていて》和《Seven Rainbow》,分别为游戏心跳回忆3的片尾曲和片头曲,这两首歌来自此前较早发行的ZARD的另一张专辑——《ときめきメモリアル SOUND BLEND》。这种编排为专辑增添了些许婉约色彩。不知何故,尽管《さわやかな君の気持ち》在歌迷中的口碑较好,但唱片市场的反响却很平淡。
我个人其实不是ZARD的歌迷,甚至不是日韩音乐的爱好者,不过我很喜欢心跳回忆系列的音乐,所以在一系列机缘巧合下获得了这张专辑,一开始我是冲着《抱きしめていて》和《Seven Rainbow》去的,但反复听过几次以后才发现《さわやかな君の気持ち》才是真正的精华,真的好清爽,也许拿清爽来形容音乐并不合适,但是它给我的第一感觉就是如此。这首歌让人精神振奋,不是那种让人热血沸腾的振奋,而是如同夏日里的清凉油一般令人神清气爽。
从日文网站上抓来的一些简单介绍:
さわやかな君の気持ち
作词:坂井泉水 作曲・编曲:徳永暁人
収録アルバム
「止まっていた时计が今动き出した」(Album Version)
抱きしめていて
作词:坂井泉水 作曲・编曲:徳永暁人
収録アルバム
「ときめきメモリアル SOUND BLEND」(オリジナルアレンジ)
Seven Rainbow
作词:坂井泉水 作曲:徳永暁人 编曲:徳永暁人
収録アルバム
「ときめきメモリアル SOUND BLEND」(オリジナルアレンジ)
专辑曲目
1. さわやかな君の気持ち
2. 抱きしめていて
3. Seven Rainbow
4. さわやかな君の気持ち(Instrumental)

Advertisements
  1. 留下评论

Log in or fill out contact info to leave a reply

Fill in your details below or click an icon to log in:

WordPress.com Logo

You are commenting using your WordPress.com account. Log Out / 更改 )

Twitter picture

You are commenting using your Twitter account. Log Out / 更改 )

Facebook photo

You are commenting using your Facebook account. Log Out / 更改 )

Google+ photo

You are commenting using your Google+ account. Log Out / 更改 )

Connecting to %s

%d 博主赞过: