ZARD – Soffio di vento ~Best of IZUMI SAKAI Selection~.tak —-CUE文件

是针对一个TAK格式版本的音轨的索引文件,不知道其他版本可不可以用。

ZARD – Soffio di vento ~Best of IZUMI SAKAI Selection~.tak —-CUE文件

提供这个音轨的人居然没有写音轨目录,真是无法想象“““

http://tokyo-time.com/bbs/viewthread.php?tid=66157&page=1

 

ZARD – Soffio di vento ~Best of IZUMI SAKAI Selection~.cue

***代码从下一行开始***

PERFORMER "ZARD"
TITLE "Soffio di vento ~Best of IZUMI SAKAI Selection~"
FILE "ZARD – Soffio di vento ~Best of IZUMI SAKAI Selection~.tak" WAVE
  TRACK 01 AUDIO
    TITLE "あの微笑みを忘れないで"
    PERFORMER "ZARD"
    INDEX 01 00:00:00
  TRACK 02 AUDIO
    TITLE "黄昏にMy Lonely Heart"
    PERFORMER "ZARD"
    INDEX 00 04:24:20
    INDEX 01 04:25:41
  TRACK 03 AUDIO
    TITLE "愛が見えない"
    PERFORMER "ZARD"
    INDEX 00 08:50:04
    INDEX 01 08:53:05
  TRACK 04 AUDIO
    TITLE "サヨナラは今もこの胸に居ます"
    PERFORMER "ZARD"
    INDEX 00 12:54:22
    INDEX 01 12:57:37
  TRACK 05 AUDIO
    TITLE "ひとりが好き"
    PERFORMER "ZARD"
    INDEX 00 18:01:47
    INDEX 01 18:05:29
  TRACK 06 AUDIO
    TITLE "あなたに帰りたい"
    PERFORMER "ZARD"
    INDEX 00 22:53:12
    INDEX 01 22:56:24
  TRACK 07 AUDIO
    TITLE "So Together"
    PERFORMER "ZARD"
    INDEX 00 28:14:16
    INDEX 01 28:16:56
  TRACK 08 AUDIO
    TITLE "遠い星を数えて"
    PERFORMER "ZARD"
    INDEX 00 33:18:12
    INDEX 01 33:21:41
  TRACK 09 AUDIO
    TITLE "遠い日のNostargia"
    PERFORMER "ZARD"
    INDEX 00 38:28:32
    INDEX 01 38:31:67
  TRACK 10 AUDIO
    TITLE "来年の夏も"
    PERFORMER "ZARD"
    INDEX 00 43:16:45
    INDEX 01 43:19:31
  TRACK 11 AUDIO
    TITLE "かけがえのないもの"
    PERFORMER "ZARD"
    INDEX 00 47:49:11
    INDEX 01 47:54:02
  TRACK 12 AUDIO
    TITLE "Boy"
    PERFORMER "ZARD"
    INDEX 00 52:05:39
    INDEX 01 52:09:09
  TRACK 13 AUDIO
    TITLE "見つめていたいね"
    PERFORMER "ZARD"
    INDEX 00 57:41:40
    INDEX 01 57:46:22

***代码在上一行结束***

Advertisements
  1. 留下评论

Log in or fill out contact info to leave a reply

Fill in your details below or click an icon to log in:

WordPress.com Logo

You are commenting using your WordPress.com account. Log Out / 更改 )

Twitter picture

You are commenting using your Twitter account. Log Out / 更改 )

Facebook photo

You are commenting using your Facebook account. Log Out / 更改 )

Google+ photo

You are commenting using your Google+ account. Log Out / 更改 )

Connecting to %s

%d 博主赞过: